Skip to main content

Camper Van Beethoven Live at The Satellite on 2011-09-14




01. intro
02. Opening Theme
03. Jack Ruby
04. tech break
05. Sweethearts
06. When I Win The Lottery
07. (I Was Born In A) Laundromat
08. Borderline
09. The Light From A Cake
10. June
11. All Her Favorite Fruit
12. Interlude
13. Flowers
14. The Humid Press Of Days
15. Pictures Of Matchstick Men
16. Come On Darkness


Collection CamperVanBeethoven
Band/Artist Camper Van Beethoven
Venue The Satellite
Location Los Angeles, CA (Silverlake)

Source KM140's > MV100 > PCM-M10 (EMTEN) > WAV @2448
Lineage WAVs > DP4 > Audacity 1.3.13 (tracking, start & end fades) > xACT 2.13 > FLAC level 8
Taped by morst
Transferred by morst & digitalist0ne

Notes

*** 24-bit high definition audio - NOT for direct CD burning ***

Camper Van Beethoven
Thursday, September 14, 2011
Los Angeles, CA (Silverlake)
The Satellite

warmup show for the 7th Annual Cracker / Camper Van Beethoven Family Reunion Campout

The Calamity opened for CVB & Cracker
CVB performed their 1989 album Key Lime Pie
Cracker's main set was their 1993 album Kerosene Hat, both with David Immergluck sitting in
encore featured Jon Segel, Victor Krummenacher, David Immergluck & Greg Lisher, but no Sal Maida

Cracker set: http://www.archive.org/details/Cracker2011-09-14

SHNTOOL:
length expanded size cdr WAVE problems fmt ratio filename
3:24.045 58765118 B cxx -- ---xx flac 0.6169 CVB2011-09-14t01.flac
2:25.923 42025886 B cxx -- ---xx flac 0.6474 CVB2011-09-14t02.flac
5:52.704 101578676 B cxx -- ---xx flac 0.7286 CVB2011-09-14t03.flac
4:15.860 73687694 B cxx -- ---xx flac 0.6682 CVB2011-09-14t04.flac
4:51.540 83963660 B cxx -- ---xx flac 0.7447 CVB2011-09-14t05.flac
3:45.220 64863494 B cxx -- ---xx flac 0.7410 CVB2011-09-14t06.flac
3:53.111 67136084 B cxx -- ---xx flac 0.7669 CVB2011-09-14t07.flac
4:11.281 72369062 B cxx -- ---xx flac 0.7266 CVB2011-09-14t08.flac
2:42.876 46908272 B cxx -- ---xx flac 0.7313 CVB2011-09-14t09.flac
4:51.047 83821544 B cxx -- ---xx flac 0.7419 CVB2011-09-14t10.flac
5:20.996 92446790 B cxx -- ---xx flac 0.7316 CVB2011-09-14t11.flac
1:00.415 17399678 B cxx -- ---xx flac 0.6433 CVB2011-09-14t12.flac
3:13.297 55669676 B cxx -- ---xx flac 0.7401 CVB2011-09-14t13.flac
2:46.650 47995316 B cxx -- ---xx flac 0.7294 CVB2011-09-14t14.flac
4:42.327 81310292 B cxx -- ---xx flac 0.7750 CVB2011-09-14t15.flac
4:14.786 73378466 B cxx -- ---xx flac 0.7068 CVB2011-09-14t16.flac
61:32.080 1063319708 B 0.7221 (16 files)

-~-~-~-~-~-~-~-~-~-~-~-~-~-~-~-~-~-~-~-~-~-~-~-~-~-
The Soundscape Preservation Society (Founded 1991)
http://www.iamtypingwithonefinger.com/SPS.html
-~-~-~-~-~-~-~-~-~-~-~-~-~-~-~-~-~-~-~-~-~-~-~-~-~-

Reviews

There are no reviews yet. Be the first one to write a review.
Uploaded by
morst
on 10/10/2011
Views
694
Favorites
2
PEOPLE ALSO FOUND
Camper Van Beethoven
by Camper Van Beethoven
9,936
0
1
( 1 reviews )
Source: Sony ECM-717 > Sharp MD-MT190MD
Camper Van Beethoven
by Camper Van Beethoven
408
0
0
Camper Van Beethoven
by Camper Van Beethoven
2,675
0
1
( 1 reviews )
Source: Sony ECM-717 > Sharp Minidisc MD-MT190
Camper Van Beethoven
by Camper Van Beethoven
344
0
0
Source: audience > Sony WM-D6c > MCAS
Camper Van Beethoven
by Camper Van Beethoven
146
0
0
Source: soundboard > Sony D5 > TDK MA90 cassette master tape
Camper Van Beethoven
by Camper Van Beethoven
11,520
1
1
( 1 reviews )
Source: Sony ECM-717 > Sharp Minidisc MD-MT190
Camper Van Beethoven
by Camper Van Beethoven
1,682
1
0
Source: AKG C480b (CK63) > Edirol UA-5 (BM2) > Nomad Jukebox 3
Camper Van Beethoven
by Camper Van Beethoven
128
1
0
Source: AKG C568EB Hybrid Shotguns @ 48 volts > Monster Studio Grade XLR > Zoom H4: 48khz / 24 bit
Camper Van Beethoven
by Camper Van Beethoven
1,727
1
1
( 1 reviews )
Source: Nakamichi CM-301 (ortf on stage with Leegeddy "active" mod) > pmod UA5> JB3
Camper Van Beethoven
by Camper Van Beethoven
3,441
2
2
( 2 reviews )
Source: Nakamichi 300 CP-1 (cardioid pair) > Sony TCD-D8 > DAT